BBC 人类星球 2011 [蓝光原盘 DIY正片+花絮特效简繁双语中字] 117.78G

BBC 人类星球 2011 [蓝光原盘 DIY正片+花絮特效简繁双语中字] 117.78G

蓝光原盘下载:人类星球[DIY特效简繁双语中字]2011 3-Disc Edition Blu-ray 1080i VC-1 DTS-HD 5.1-shhaclm@CHDBits 117G

 

1.原盘仅带英语字幕一条,追加特效简繁中字幕需播放时调用。

2.菜单未修改,因原盘菜单无别的字幕选项。

3.DIY后已通过TMT3.170和185,TMT5.1.80(BDMV)及PD9、PD10(ISO)测试,

流畅播放,章节跳转和拖放正常,菜单功能全部正常。并用先锋BDR-S05XLB刻录机刻录到TDK

BD-RE50盘片,用SONY BDP-S470播放机测试,播放完全正常.

4.文件夹内共有三个BD,播放时注意选择播放.其中DISC 3播放时启动很慢(原盘DIY前就如此).

【译  名】BBC: 人类星球
【原  名】BBC: Human Planet
【发行时间】2011年01月13日
【制作发行】BBC
【地  区】英国
【语  言】英语
【集  数】8集
【每集长度】59分钟
【简  介】

BBC 8集大型电视系列片 – Human Planet (人类星球),探讨人与自然的关系。8集节目分别探讨极地、山区、海洋、丛林、草原、河流、沙漠和城市的人类活动。世界一流的自然与人类专家以及摄影师,从空中、陆地和水下抓拍珍贵镜头。BBC摄制组前往世界80个地方,抓拍了从未在电视屏幕上出现过的罕见精彩的人类活动。

Disc1 :第1集:海洋
第2集:沙漠
第3集:北极

Disc2 :第4集:丛林
第5集:山
第6集:草原

DISC3 : 第7集:河
第8集:城市
花絮 1
花絮 2

DISC INFO:

Disc Title:     HUMANPLANET_D1
Disc Size:      43,716,301,834 bytes
Protection:     AACS
BD-Java:        Yes
BDInfo:         0.5.6

PLAYLIST REPORT:

Name:                   00800.MPLS
Length:                 2:56:38 (h:m:s)
Size:                   43,450,755,072 bytes
Total Bitrate:          32.80 Mbps

VIDEO:

Codec                   Bitrate             Description
—–                   ——-             ———–
VC-1 Video              28307 kbps          1080i / 25 fps / 16:9 / Advanced Profile 3

AUDIO:

Codec                           Language        Bitrate         Description
—–                           ——–        ——-         ———–
DTS-HD Master Audio             English         2220 kbps       5.1 / 48 kHz / 2220 kbps / 16-bit (DTS Core: 5.1 / 48 kHz / 1509 kbps / 16-bit)
Dolby Digital Audio             English         448 kbps        2.0 / 48 kHz / 448 kbps / DN -4dB

SUBTITLES:

Codec                           Language        Bitrate         Description
—–                           ——–        ——-         ———–
Presentation Graphics           English         41.223 kbps
Presentation Graphics           Chinese         55.669 kbps
Presentation Graphics           Chinese         57.674 kbps

FILES:

Name            Time In         Length          Size            Total Bitrate
—-            ——-         ——          —-            ————-
00000.M2TS      0:00:00.000     0:58:45.994     14,554,368,000  33,022
00013.M2TS      0:58:45.994     0:59:06.997     14,575,312,896  32,874
00014.M2TS      1:57:52.992     0:58:45.994     14,321,074,176  32,493

DISC INFO:

Disc Title:     HUMANPLANET_D2
Disc Size:      46,111,800,186 bytes
Protection:     AACS
BD-Java:        Yes
BDInfo:         0.5.6

PLAYLIST REPORT:

Name:                   00800.MPLS
Length:                 2:56:52 (h:m:s)
Size:                   45,846,282,240 bytes
Total Bitrate:          34.56 Mbps

VIDEO:

Codec                   Bitrate             Description
—–                   ——-             ———–
VC-1 Video              29983 kbps          1080i / 25 fps / 16:9 / Advanced Profile 3

AUDIO:

Codec                           Language        Bitrate         Description
—–                           ——–        ——-         ———–
DTS-HD Master Audio             English         2244 kbps       5.1 / 48 kHz / 2244 kbps / 16-bit (DTS Core: 5.1 / 48 kHz / 1509 kbps / 16-bit)
Dolby Digital Audio             English         448 kbps        2.0 / 48 kHz / 448 kbps / DN -4dB

SUBTITLES:

Codec                           Language        Bitrate         Description
—–                           ——–        ——-         ———–
Presentation Graphics           English         36.835 kbps
Presentation Graphics           Chinese         52.786 kbps
Presentation Graphics           Chinese         54.747 kbps

FILES:

Name            Time In         Length          Size            Total Bitrate
—-            ——-         ——          —-            ————-
00000.M2TS      0:00:00.000     0:59:02.997     14,785,572,864  33,385
00013.M2TS      0:59:02.997     0:59:04.992     14,918,799,360  33,667
00014.M2TS      1:58:07.989     0:58:44.992     16,141,910,016  36,634

DISC INFO:

Disc Title:     HUMANPLANET_D3
Disc Size:      36,635,958,614 bytes
Protection:     AACS
BD-Java:        Yes
BDInfo:         0.5.6

PLAYLIST REPORT:

Name:                   00800.MPLS
Length:                 1:56:53 (h:m:s)
Size:                   31,097,425,920 bytes
Total Bitrate:          35.47 Mbps

VIDEO:

Codec                   Bitrate             Description
—–                   ——-             ———–
VC-1 Video              30820 kbps          1080i / 25 fps / 16:9 / Advanced Profile 3

AUDIO:

Codec                           Language        Bitrate         Description
—–                           ——–        ——-         ———–
DTS-HD Master Audio             English         2267 kbps       5.1 / 48 kHz / 2267 kbps / 16-bit (DTS Core: 5.1 / 48 kHz / 1509 kbps / 16-bit)
Dolby Digital Audio             English         448 kbps        2.0 / 48 kHz / 448 kbps / DN -4dB

SUBTITLES:

Codec                           Language        Bitrate         Description
—–                           ——–        ——-         ———–
Presentation Graphics           English         39.745 kbps
Presentation Graphics           Chinese         57.426 kbps
Presentation Graphics           Chinese         59.311 kbps

FILES:

Name            Time In         Length          Size            Total Bitrate
—-            ——-         ——          —-            ————-
00000.M2TS      0:00:00.000     0:58:40.992     15,784,089,600  35,863
00013.M2TS      0:58:40.992     0:58:12.992     15,313,336,320  35,072

DISC INFO:

Disc Title:     HUMANPLANET_D3
Disc Size:      36,517,275,686 bytes
Protection:     AACS
BD-Java:        Yes
BDInfo:         0.5.6

PLAYLIST REPORT:

Name:                   00250.MPLS
Length:                 0:10:28 (h:m:s)
Size:                   2,666,612,736 bytes
Total Bitrate:          33.97 Mbps

VIDEO:

Codec                   Bitrate             Description
—–                   ——-             ———–
VC-1 Video              29730 kbps          1080i / 25 fps / 16:9 / Advanced Profile 3

AUDIO:

Codec                           Language        Bitrate         Description
—–                           ——–        ——-         ———–
DTS-HD Master Audio             English         2006 kbps       5.1 / 48 kHz / 2006 kbps / 16-bit (DTS Core: 5.1 / 48 kHz / 1509 kbps / 16-bit)
Dolby Digital Audio             English         448 kbps        2.0 / 48 kHz / 448 kbps / DN -4dB

SUBTITLES:

Codec                           Language        Bitrate         Description
—–                           ——–        ——-         ———–
Presentation Graphics           English         54.675 kbps
Presentation Graphics           Chinese         57.101 kbps
Presentation Graphics           Chinese         58.907 kbps

FILES:

Name            Time In         Length          Size            Total Bitrate
—-            ——-         ——          —-            ————-
00004.M2TS      0:00:00.000     0:10:28.000     2,666,612,736   33,970

DISC INFO:

Disc Title:     HUMANPLANET_D3
Disc Size:      36,517,275,686 bytes
Protection:     AACS
BD-Java:        Yes
BDInfo:         0.5.6

PLAYLIST REPORT:

Name:                   00251.MPLS
Length:                 0:09:51 (h:m:s)
Size:                   2,279,049,216 bytes
Total Bitrate:          30.85 Mbps

VIDEO:

Codec                   Bitrate             Description
—–                   ——-             ———–
VC-1 Video              26627 kbps          1080i / 25 fps / 16:9 / Advanced Profile 3

AUDIO:

Codec                           Language        Bitrate         Description
—–                           ——–        ——-         ———–
DTS-HD Master Audio             English         2117 kbps       5.1 / 48 kHz / 2117 kbps / 16-bit (DTS Core: 5.1 / 48 kHz / 1509 kbps / 16-bit)
Dolby Digital Audio             English         448 kbps        2.0 / 48 kHz / 448 kbps / DN -4dB

SUBTITLES:

Codec                           Language        Bitrate         Description
—–                           ——–        ——-         ———–
Presentation Graphics           English         58.378 kbps
Presentation Graphics           Chinese         57.101 kbps
Presentation Graphics           Chinese         58.907 kbps

FILES:

Name            Time In         Length          Size            Total Bitrate
—-            ——-         ——          —-            ————-
00005.M2TS      0:00:00.000     0:09:51.000     2,279,049,216   30,850

网友评论3

  1. 地板
    wode123:

    楼主发贴辛苦了,谢谢楼主分享!

    2020-07-17下午2:08
  2. 板凳
    leileia:

    2020-06-16上午10:52
  3. 沙发
    夕夕的马尔代夫:

    下载到77%没有资源了,怎么办啊?

    2019-07-15下午3:59

发表评论

用以下平台绑定 [ 登录 ] 后发言!