虎胆龙威1-4合集 2007 [蓝光原盘下载 国语中字] 158G

虎胆龙威1-4合集 2007 [蓝光原盘下载 国语中字] 158G

 

蓝光原盘磁力链:Die Hard 1-4 (1988-2007)(Blu-Ray)( 1080p) 158G

高清MKV磁力链:虎胆龙威1-4合集Die.Hard.Quadrilogy(1988-2007).x264.BDRip.720p.48.Seconds 22.6G

 

可以分集下载。

【影片原名】Die Hard
【中文名称】虎胆龙威/终极警探
【影片类型】动作/犯罪/惊悚
【影片时长】131 分钟
【国  家】美国
【出品公司】
【出品年代】1988
【上映日期】1988.7.15
【影片分级】
【官方网站】
【IMDB链接】http://www.imdb.com/title/tt0095016/

※※※※※※※ 详细信息 ※※※※※※※

【导  演】约翰·麦克蒂尔南 John McTiernan
【主要演员】布鲁斯·威利斯 Bruce Willis …..John McClane
阿伦·瑞克曼 Alan Rickman …..Hans Gruber
邦尼·彼地丽娅 Bonnie Bedelia …..Holly Gennero McClane
Reginald VelJohnson …..Sgt. Al Powell (as Reginald Veljohnson)
Alexander Godunov …..Karl
Paul Gleason …..Deputy Police Chief Dwayne T. Robinson
William Atherton …..Richard Thornburg
De’voreaux White …..Argyle
Hart Bochner …..Harry Ellis
Dennis Hayden …..Eddie
Clarence Gilyard Jr. …..Theo
Bruno Doyon …..Franco
Andreas Wisniewski …..Tony
James Shigeta …..Joseph Yoshinobu Takagi
Robert Davi …..FBI Special Agent Johnson
Grand L. Bush …..FBI Agent Johnson
Matt Landers …..Capt. Mitchell
Anthony Peck …..Young Cop
Lorenzo Caccialanza …..Marco
Joey Plewa …..Alexander

【内容介绍】
警探约翰·麦卡伦从纽约来到洛杉矶,见他分别已有半年之久的妻子霍莉。他被邀请参加在一栋大厦的30层举行的圣诞晚会。然而一群匪徒却打起了大厦金库中存有的六亿多元公债券的主意。他们封锁了大楼,将参加晚会的人扣作人质。麦卡伦侥幸逃脱,只身与匪徒们展开了周旋。他先后用火警铃和无线电向外求救,却都未能成功。情急之下,他将一名匪徒的尸体从楼上扔了下去,砸在前来巡视的黑人警员鲍威尔车上,才算是报警成功。
麦卡伦通过无线电与鲍威尔保持着联系。然而赶到的警方负责人的官僚作风却给他添了不少麻烦。他一面与匪徒作战,一面还要帮助警方消灭匪徒的导弹发射器。匪首汉斯与麦卡伦之间展开了一场斗智斗勇的较量。而赶到的联邦调查局官员的愚蠢自大的行动更帮助匪徒们开启了金库,达到了目的。这一切都使麦卡伦的处境更加困难。
汉斯在屋顶上装了炸药,企图把人质和联邦调查局的营救直升机一同炸掉。麦卡伦与搜寻他的匪徒之间进行了一场苦斗。而此时新闻记者的卑鄙行为更使霍莉暴露了身份,处境更加危险。
麦卡伦打败了匪徒,冲上屋顶将人质赶回了大楼。但他却受到联邦官员的攻击,苦不堪言,麦卡伦以一条水龙带逃离了屋顶。 在巨大的爆炸中, 屋顶被化为火海,直升机也被炸毁,麦卡伦这才总算没有死在自己人的枪口下。
进入楼中的麦卡伦遇见了正要携款逃离的汉斯。在一番较量之后,麦卡伦救出了霍莉。汉斯从楼中摔落,得到了应有的下场。在满天飞舞的公债券中,麦卡伦带着妻子乘车离去。

虎胆龙威1-4合集 2007 [蓝光原盘下载 国语中字] 158G

引用

Disc Title: Die Hard
Disc Size: 37,723,253,838 bytes
Protection: AACS
BD-Java: Yes
BDInfo: 0.5.6

PLAYLIST REPORT:

Name: 00001.MPLS
Length: 2:12:07 (h:m:s)
Size: 31,819,579,392 bytes
Total Bitrate: 32.11 Mbps

VIDEO:

Codec Bitrate Description
—– ——- ———–
MPEG-4 AVC Video 25908 kbps 1080p / 23.976 fps / 16:9 / High Profile 4.1

AUDIO:

Codec Language Bitrate Description
—– ——– ——- ———–
DTS-HD Master Audio English 2282 kbps 5.1 / 48 kHz / 2282 kbps / 24-bit (DTS Core: 5.1 / 48 kHz / 1509 kbps / 24-bit)
Dolby Digital Audio French 448 kbps 5.1 / 48 kHz / 448 kbps / DN -4dB
Dolby Digital Audio English 224 kbps 2.0 / 48 kHz / 224 kbps / DN -4dB / Dolby Surround
Dolby Digital Audio English 224 kbps 2.0 / 48 kHz / 224 kbps / DN -4dB
Dolby Digital Audio English 224 kbps 2.0 / 48 kHz / 224 kbps / DN -4dB
DTS Audio Chinese 0 kbps 5.1 / 48 kHz

SUBTITLES:

Codec Language Bitrate Description
—– ——– ——- ———–
Presentation Graphics English 88.791 kbps
Presentation Graphics English 52.242 kbps
Presentation Graphics Chinese 42.931 kbps
Presentation Graphics Chinese 44.089 kbps
Presentation Graphics French 1.592 kbps
Presentation Graphics Spanish 46.326 kbps
Presentation Graphics Spanish 0.967 kbps

FILES:

Name Time In Length Size Total Bitrate
—- ——- —— —- ————-
00001.M2TS 0:00:00.000 2:12:07.920 31,819,579,392 32,109

 

 

 

 

【影片原名】Die Hard II
【中文名称】虎胆龙威续集/虎胆龙威2/终极警探续集
【影片类型】动作/犯罪/惊悚
【影片时长】124 分钟
【国  家】美国
【出品公司】
【出品年代】1990
【上映日期】1990.7.4
【影片分级】
【官方网站】
【IMDB链接】http://www.imdb.com/title/tt0099423/

※※※※※※※ 详细信息 ※※※※※※※

【导  演】雷尼·哈林 Renny Harlin
【主要演员】约翰·阿莫斯 John Amos …..Maj. Grant
汤姆·鲍尔 Tom Bower …..Marvin
布鲁斯·威利斯 Bruce Willis …..John McClane
威廉姆·赛德勒 William Sadler …..Col. Stuart
弗雷德·多尔顿·托马斯 Fred Dalton Thompson …..Trudeau
罗伯特·帕特里克 Robert Patrick …..O’Reilly
约翰·雷吉扎莫 John Leguizamo …..Burke
沃迪·科蒂斯·霍尔 Vondie Curtis-Hall …..Miller (as Vondi Curtis Hall)
科尔姆·米尼 Colm Meaney …..Pilot (Windsor Plane)
乔治·费舍 George Fisher …..Painter (scenes deleted)
William Atherton …..Richard Thornburg
Reginald VelJohnson …..Sgt. Al Powell
弗兰科·尼罗 Franco Nero …..Gen. Ramon Esperanza
Dennis Franz …..Capt. Carmine Lorenzo
Art Evans …..Leslie Barnes
Sheila McCarthy …..Samantha ‘Sam’ Coleman
Don Harvey …..Garber
Tony Ganios …..Baker
Peter Nelson …..Thompson
Michael Cunningham …..Sheldon

【内容介绍】
圣诞前夕,麦卡伦正在华盛顿的机场等待妻子乘飞机归来过节。然而无意中他却发现了一个重大的阴谋:被议会解职的特种部队施上校正率领部下准备解救被引渡的中美洲毒枭艾将军。麦卡伦将此事告知了机场警卫队的罗队长,但后者的官僚作风和愚蠢却使这一切未能得到阻止。施上校带领部下占领了机场附近的一座小教堂,设置了一个飞行控制中心,并切断了机场控制塔与空中的一切联系,使众多的客机无法降落。而麦卡伦的妻子霍莉此时却正在其中的一架飞机上。为了解救妻子和在空中的众多客机,麦卡伦不得不再次进行艰苦的努力。

控制塔试图修复天线的行动失败,恐怖分子更诱使一架飞机坠毁以示警告。麦卡伦虽尽力阻止,但仍无济于事。军方特种部队在关少校的带领下赶到,麦卡伦再次被排斥在行动人员之外。

艾将军控制了押送他的飞机并在机场降落,麦卡伦企图抓住艾将军以控制局面,虽然功败垂成。但也因此而推断出了施上校的巢穴所在。关少校率部突袭教堂。而麦卡伦却在无意间发现,这一切都是一场骗局,关少校等人早已和对方勾结在一起。麦卡伦将消息通知了罗队长,但警卫队却因记者报道引起的混乱而无法行动。

眼看艾将军等人就要乘飞机逃脱,麦卡伦及时搭乘直升机赶到,在飞机的机翼上和对方展开了殊死搏斗。虽然被打落机翼,麦卡伦却乘机拧开了飞机油箱。在飞机即将离地时,麦卡伦点燃了跑道上洒落的汽油。一条火龙沿着油迹追上了刚刚起飞的客机,将艾将军人连人带机炸得粉碎。跑道上绵延数百米的火迹也成了指引飞机降落的指示灯,众多的飞机依次安全降落。在满天飞舞的雪花中,麦卡伦和妻子紧紧地拥抱在一起。

虎胆龙威1-4合集 2007 [蓝光原盘下载 国语中字] 158G

引用

DISC INFO:

Disc Title: Die Hard II
Disc Size: 41,704,184,177 bytes
Protection: AACS
BD-Java: Yes
BDInfo: 0.5.6

PLAYLIST REPORT:

Name: 00001.MPLS
Length: 2:03:22 (h:m:s)
Size: 31,749,181,440 bytes
Total Bitrate: 34.31 Mbps

VIDEO:

Codec Bitrate Description
—– ——- ———–
MPEG-4 AVC Video 28371 kbps 1080p / 23.976 fps / 16:9 / High Profile 4.1

AUDIO:

Codec Language Bitrate Description
—– ——– ——- ———–
DTS-HD High-Res Audio English 2979 kbps 5.1 / 48 kHz / 2979 kbps / 24-bit (DTS Core: 5.1 / 48 kHz / 1509 kbps / 24-bit)
Dolby Digital Audio French 448 kbps 5.1 / 48 kHz / 448 kbps / DN -4dB
Dolby Digital Audio English 224 kbps 2.0 / 48 kHz / 224 kbps / DN -4dB / Dolby Surround
Dolby Digital Audio English 224 kbps 2.0 / 48 kHz / 224 kbps / DN -4dB
DTS Audio Chinese 0 kbps 5.1 / 48 kHz

SUBTITLES:

Codec Language Bitrate Description
—– ——– ——- ———–
Presentation Graphics English 62.297 kbps
Presentation Graphics Chinese 31.721 kbps
Presentation Graphics Chinese 32.720 kbps
Presentation Graphics French 1.118 kbps
Presentation Graphics Spanish 55.452 kbps
Presentation Graphics Spanish 0.446 kbps

FILES:

Name Time In Length Size Total Bitrate
—- ——- —— —- ————-
00001.M2TS 0:00:00.000 2:03:21.394 31,749,150,720 34,317
00002.M2TS 2:03:21.394 0:00:01.000 30,720 246

 

【影片原名】Die Hard III

【中文名称】虎胆龙威3/终极警探3/纽约大劫案
【影片类型】动作/犯罪/惊悚
【影片时长】123 分钟
【国  家】美国
【出品公司】
【出品年代】1995
【上映日期】1995.5.19
【影片分级】
【官方网站】
【IMDB链接】http://www.imdb.com/title/tt0112864/

※※※※※※※ 详细信息 ※※※※※※※

【导  演】约翰·麦克蒂尔南 John McTiernan
【主要演员】塞缪尔·杰克逊 Samuel L. Jackson …..Zeus Carver
布鲁斯·威利斯 Bruce Willis …..John McClane
杰里米·艾恩斯 Jeremy Irons …..Simon Gruber
考林·加普 Colleen Camp …..Connie Kowalski
阿西夫·曼德维 Aasif Mandvi …..Arab Cabbie
Graham Greene …..Joe Lambert
Larry Bryggman …..Insp. Walter Cobb
Anthony Peck …..Ricky Walsh
Nicholas Wyman …..Mathias Targo (as Nick Wyman)
Sam Phillips …..Katya
Kevin Chamberlin …..Charles Weiss
Sharon Washington …..Officer Jane
Stephen Pearlman …..Dr. Fred Schiller
Michael Alexander Jackson …..Dexter
Aldis Hodge …..Raymond
Mischa Hausserman …..Mischa
Edwin Hodge …..Dexter’s Friend
Robert Sedgwick …..Rolf (as Rob Sedgwick)
Tony Halme …..Roman
Bill Christ …..Ivan

【内容介绍】
西蒙是个头脑慎密,心狠手毒的恐怖分子。他为了窃取联邦大厦地下金库的黄金,想方设法分散警力。他先是制造了一起爆炸案。在警方紧张破案之际,他又给警长约翰·麦卡伦打了电话,声称警方必须听从他的一系列指令,否则他将继续在全市搞爆炸活动。

麦卡伦赤手空拳地接受了第一道指令:挂上写有“我讨厌黑人”的牌子站在黑人街区,并且不准有警察保护。他受到了一顿痛打,幸亏受到一个名叫宙斯的杂货店老板帮助才得以脱身。当他们回到警局时,西蒙又打来了电话。他对发生的一切了如指掌,并命令他们到达指定地点接受新的指令,而且又命令他们到达指定的电话亭,随后在电话亭发出第三道指定,否则将在地铁上引爆一枚定时炸弹。麦卡伦与西蒙分头行事。麦卡伦跳上车寻找炸弹,西蒙则快速赶往电话亭。麦克莱恩找到了炸弹但西蒙却在电话中大骂他们拖延时间。火车驶入站台,炸弹发生了爆炸,将地铁站炸得面目全非。乘客死伤无数,麦卡伦和宙斯侥幸生还。

然而西蒙却意犹未尽。他命令麦克莱恩去拆除街心花园的炸弹,又宣称在纽约市一所小学校内安放了炸弹。警方和市政官员几乎全部出动,去各小学疏散学生,搜寻炸弹。麦卡伦逐渐对西蒙一个又一个的指令产生疑虑。他终于发现在全市警力都集中于各个学校搜寻炸弹的同时,有一帮匪徒已经通过掘地从联邦大厦的地下金库中劫走了大量的黄金。这是一切有预谋的特大犯罪活动。在明白了西蒙的诡计后,麦卡伦与宙斯立即驾车追赶匪徒。在经过一连串的激烈搏斗后,他们终于成功地阻止了匪徒的行动,追回了被窃的黄金。

虎胆龙威1-4合集 2007 [蓝光原盘下载 国语中字] 158G

引用

DISC INFO:

Disc Title: Die Hard III
Disc Size: 44,610,804,121 bytes
Protection: AACS
BD-Java: Yes
BDInfo: 0.5.6

PLAYLIST REPORT:

Name: 00001.MPLS
Length: 2:08:31 (h:m:s)
Size: 33,098,883,072 bytes
Total Bitrate: 34.34 Mbps

VIDEO:

Codec Bitrate Description
—– ——- ———–
MPEG-4 AVC Video 28402 kbps 1080p / 23.976 fps / 16:9 / High Profile 4.1

AUDIO:

Codec Language Bitrate Description
—– ——– ——- ———–
DTS-HD Master Audio English 2703 kbps 5.1 / 48 kHz / 2703 kbps / 24-bit (DTS Core: 5.1 / 48 kHz / 1509 kbps / 24-bit)
Dolby Digital Audio English 224 kbps 2.0 / 48 kHz / 224 kbps / DN -4dB
Dolby Digital Audio French 224 kbps 2.0 / 48 kHz / 224 kbps / DN -4dB / Dolby Surround
DTS Audio Chinese 0 kbps 5.1 / 48 kHz

SUBTITLES:

Codec Language Bitrate Description
—– ——– ——- ———–
Presentation Graphics English 74.383 kbps
Presentation Graphics Chinese 34.415 kbps
Presentation Graphics Chinese 35.268 kbps
Presentation Graphics French 1.619 kbps
Presentation Graphics Spanish 54.985 kbps
Presentation Graphics Spanish 1.473 kbps

FILES:

Name Time In Length Size Total Bitrate
—- ——- —— —- ————-
00001.M2TS 0:00:00.000 2:08:31.704 33,098,883,072 34,336

 



 

 

【影片原名】Live Free Or Die HardOr Die Hard
【中文名称】虎胆龙威4
【影片类型】动作/犯罪/惊悚
【影片时长】123 分钟
【国  家】美国
【出品公司】
【出品年代】2007
【上映日期】2007.11.12
【影片分级】
【官方网站】
【IMDB链接】http://www.imdb.com/title/tt0337978/

※※※※※※※ 详细信息 ※※※※※※※

【导  演】伦·维斯曼 Len Wiseman
【主要演员】布鲁斯·威利斯 Bruce Willis … John McClane
蒂莫西·奥利芬特 Timothy Olyphant … Thomas Gabriel
贾斯汀·朗 Justin Long … Matt Farrell
李美琪 Maggie Q … Mai Lihn
Cliff Curtis … Bowman
Jonathan Sadowski … Trey
Andrew Friedman … Casper
Kevin Smith … Warlock
Yorgo Constantine … Russo
Cyril Raffaelli … Rand
Chris Palermo … Del
玛丽·伊丽莎白·文斯蒂德 Mary Elizabeth Winstead … Lucy McClane
Sung Kang … Raj
Zeljko Ivanek … Molina
Christina Chang … Taylor

【内容介绍】
这是《虎胆龙威》系列特别营造的一个惯例:约翰·迈克莱恩总是在错误的时间出现在错误的地方,然后**卷进一系列的麻烦之中。话说不知道是哪一年的7月4 日,恰好是一个周末,虽说纽约**约翰·迈克莱恩正在度假中,可是他还来不及和他那已经上大学的女儿露西道别,就被总部的电话叫走了,他接到一个任务:逮捕黑客马特·法莱尔,然后送到FBI那里接受审讯……怎么看这都是一件稀松平常的案子,可是你不要忘了约翰那天生吸引麻烦的体质。约翰刚刚抵达马特的公寓,就像触动了什么机关似的,各种各样的混乱接踵而来。
在马特的帮助下,约翰那不太灵光的脑袋终于开始慢慢理解自己身边为什么发生了这么多事情。原来,不知道来自于何方的一股攻击力量,正在侵蚀着美国的计算机系统,一旦成功,整个国家都将陷入停顿的可怕状态。当然,这个计划背后肯定有一个神秘人物,只是FBI没办法确定这位神秘人的具体位置。
制造这场混乱的幕后黑手就是托马斯·加布里埃尔,他为约翰准备了一大堆机关障碍,包括绑架他的女儿露西。目的只有一个,就是避免这个**插手自己一手策划的惊天大计划。要说计算机啊网络啊,可都是约翰的死穴,虽然不至于一窍不通,也**不离十了。好在虽然一路连滚带爬,约翰却没忘记自己的任务,将马特牢牢地带在自己身边,于是这位年轻的黑客小伙子,就成了这一次约翰身边最得力的帮手。

虎胆龙威1-4合集 2007 [蓝光原盘下载 国语中字] 158G

引用

DISC INFO:

Disc Title: Live Free Or Die HardOr Die Hard
Disc Size: 46,080,502,876 bytes
Protection: AACS
BD-Java: Yes
BDInfo: 0.5.6

PLAYLIST REPORT:

Name: 00000.MPLS
Length: 2:08:42 (h:m:s)
Size: 33,710,168,064 bytes
Total Bitrate: 34.92 Mbps

VIDEO:

Codec Bitrate Description
—– ——- ———–
MPEG-4 AVC Video 26850 kbps 1080p / 23.976 fps / 16:9 / High Profile 4.1

AUDIO:

Codec Language Bitrate Description
—– ——– ——- ———–
DTS-HD Master Audio English 4086 kbps 5.1 / 48 kHz / 4086 kbps / 24-bit (DTS Core: 5.1 / 48 kHz / 1509 kbps / 24-bit)
Dolby Digital Audio English 448 kbps 5.1 / 48 kHz / 448 kbps / DN -4dB
Dolby Digital Audio French 448 kbps 5.1 / 48 kHz / 448 kbps / DN -4dB
Dolby Digital Audio English 224 kbps 2.0 / 48 kHz / 224 kbps / DN -4dB
DTS Audio Chinese 0 kbps 5.1 / 48 kHz

SUBTITLES:

Codec Language Bitrate Description
—– ——– ——- ———–
Presentation Graphics English 64.481 kbps
Presentation Graphics Chinese 60.758 kbps
Presentation Graphics Chinese 62.030 kbps
Presentation Graphics French 2.132 kbps
Presentation Graphics Spanish 50.666 kbps
Presentation Graphics Spanish 1.549 kbps

FILES:

Name Time In Length Size Total Bitrate
—- ——- —— —- ————-
00000.M2TS 0:00:00.000 2:08:42.715 33,710,168,064 34,921

引用

郑重声明:
本站提供的所有影视作品均是在网上搜集任何涉及商业盈利目的均不得使用,
否则产生的一切后果将由您自己承担!本站将不对本站的任何内容负任何法律责任!
该下载内容仅做宽带测试使用,请在下载后24小时内删除。请购买正版!

网友评论2

  1. 板凳
    wode123:

    楼主发贴辛苦了,谢谢楼主分享!

    2020-07-17下午2:05
  2. 沙发
    石头记:

    都没有资源的,谁能提供

    2018-01-10上午1:51

发表评论

用以下平台绑定 [ 登录 ] 后发言!