BBC - 理查德·哈蒙德:看不见的世界 2010 [蓝光原盘 中字] 38.4G

2013082872943337

 

蓝光原盘下载:BBC理查德 哈蒙德 看不见的世界[中字]2010 Bluray 1080i AVC DTS-HD 2.0  38.4G

 

Name: Richard Hammond's Invisible Worlds
Released: 2010
Genre: Documentary
Director: Dan Clifton, Gavin Maxwell, Matthew Wortman
Starring: Richard Hammond, Matthew G. McHarg, Tom Warner, Tracy Albrecht, Alan Bradley, Erin Jensen, Duane Wilbur, Jack Fox, Dany Kistler, Edgar D. Mitchell
Issued: UK
Length: 2:28:59

Richard Hammond journeys into the parallel universe that lies beyond the limits of the naked eye. Using state-of-the-art imaging technologies, Richard discovers that it's as much the things we cannot see as those we can that shape our lives. From spectacular natural phenomena such as vast, superfast lightning clusters, to one of the wonders of the living world and our own technological achievements such as the awe inspiring aerial work conducted on high-voltage power lines, Richard explores the hidden secrets of three distinct invisible realms that lie beyond the limits of human vision, helping us to unravel some of the mysteries of our world.

Episode 1 - Speed Limits
Episode 2 - Out of Sight
Episode 3 - Off the Scale

image

引用

DISC INFO:

Disc Title:     INVISIBLE WORLDs Hammonds
Disc Size:      41,230,719,174 bytes
Protection:     AACS
BD-Java:        No
BDInfo:         0.5.6

PLAYLIST REPORT:

Name:                   00001.MPLS
Length:                 2:28:59 (h:m:s)
Size:                   40,870,625,280 bytes
Total Bitrate:          36.57 Mbps

VIDEO:

Codec                   Bitrate             Description
-----                   -------             -----------
MPEG-4 AVC Video        32411 kbps          1080i / 29.970 fps / 16:9 / High Profile 4.1

AUDIO:

Codec                           Language        Bitrate         Description
-----                           --------        -------         -----------
DTS-HD Master Audio             English         1747 kbps       2.0 / 48 kHz / 1747 kbps / 16-bit (DTS Core: 2.0 / 48 kHz / 1509 kbps / 16-bit)
Dolby Digital Audio             English         384 kbps        2.0 / 48 kHz / 384 kbps

SUBTITLES:

Codec                           Language        Bitrate         Description
-----                           --------        -------         -----------
Presentation Graphics           English         44.999 kbps
Presentation Graphics           Chinese         46.511 kbps
Presentation Graphics           Chinese         46.470 kbps
Presentation Graphics           Chinese         41.650 kbps

FILES:

Name            Time In         Length          Size            Total Bitrate
----            -------         ------          ----            -------------
00003.M2TS      0:00:00.000     0:48:15.959     13,651,040,256  37,711
00004.M2TS      0:48:15.959     0:50:06.670     12,903,862,272  34,334
00005.M2TS      1:38:22.630     0:50:37.034     14,315,722,752  37,710

网友评论7

  1. 5楼
    卡布奇诺:

    在哪里

    2020-06-15上午8:22
  2. 4楼
    剑胆琴心:

    良心资源

    2018-01-27下午12:34
  3. 地板
    IKEA:

    希望楼主可以将蓝光原盘纪录片发扬光大,我周末在家就看这个,其它的不看

    2017-11-16上午10:23
  4. 板凳
    Fresh Air:

    希望楼主可以将蓝光原盘纪录片发扬光大,我周末在家就看这个,其它的不看

    2014-09-29上午12:43
  5. 沙发
    音范丝_影音:

    #BBC - 理查德·哈蒙德:看不见的世界 2010 [蓝光原盘 中字] 38.4G# - 蓝光原盘下载:BBC理查德 哈蒙德 看不见的世界[中字]2010 Bluray 1080i AVC DTS-HD ... http://t.cn/8s5Sp8x

    2014-03-24下午9:37
    • 上帝家属:

      为了本网站做的更好,希望发布蓝光电影时附上电影菜单 和电影截图[嘻嘻]以便选择

      2014-03-24下午9:39
    • 剑胆琴心:

      好资源

      2018-01-27下午12:33

发表评论

用以下平台绑定 [ 登录 ] 后发言!